<?xml version="1.0" standalone="no"?><!DOCTYPE svg PUBLIC "-//W3C//DTD SVG 1.1//EN" "http://www.w3.org/Graphics/SVG/1.1/DTD/svg11.dtd" ><svg xmlns="http://www.w3.org/2000/svg"><metadata>Generated by Glyphter</metadata><defs><font id="Nucleo_icons" horiz-adv-x="0"><font-face units-per-em="1024" ascent="1024" descent="0" font-family="Nucleo_icons" font-weight="normal" /><missing-glyph horiz-adv-x="0" /><glyph unicode="&#x0041;" d="M1014.84,615.154C1005.179,647.355,989.079,673.116,966.538,695.657C947.217,718.198,921.456,737.519,889.255,750.399C860.274,763.28,824.852,769.72,789.431,769.72C760.45,769.72,731.469,766.5,705.708,756.84C679.947,747.179,657.406,734.299,634.865,718.198C612.324,702.097,593.003,685.997,573.682,663.456C554.362,644.135,535.041,621.594,518.94,599.053C499.619,621.594,483.519,640.915,464.198,663.456C444.877,682.777,425.557,702.097,403.016,718.198C380.475,734.299,357.934,747.179,332.173,756.84C299.972,766.5,274.211,769.72,242.009,769.72C206.588,769.72,171.167,763.28,142.186,750.399C109.984,737.519,87.443,721.418,64.903,695.657C45.582,673.116,29.481,647.355,16.601,615.154C6.94,582.953,0.5,550.752,0.5,515.33C0.5,479.909,6.94,444.487,16.601,412.286C26.261,380.085,42.362,354.324,64.903,328.563C84.223,306.022,109.984,286.701,142.186,273.821C171.167,260.94,206.588,254.5,245.23,254.5C274.211,254.5,299.972,257.72,325.733,267.381C351.494,277.041,374.035,286.701,396.575,302.802C419.116,315.682,438.437,335.003,457.758,354.324C477.079,373.645,496.399,392.965,512.5,412.286C531.821,392.965,547.921,370.425,567.242,354.324C586.563,335.003,609.104,318.903,628.425,302.802C650.965,286.701,673.506,277.041,699.267,267.381C725.028,257.72,750.789,254.5,779.77,254.5C818.412,254.5,850.613,260.94,882.814,273.821C911.796,286.701,937.557,306.022,960.097,328.563C979.418,351.104,995.519,380.085,1008.399,412.286C1018.06,444.487,1024.5,476.689,1024.5,515.33C1024.5,553.972,1024.5,586.173,1014.84,615.154C1014.84,615.154,1014.84,615.154,1014.84,615.154M393.355,467.028C380.475,454.148,364.374,441.267,348.274,431.607C332.173,421.947,316.072,412.286,296.752,405.846C280.651,399.406,261.33,396.186,242.009,396.186C206.588,396.186,180.827,405.846,161.506,428.387C142.186,450.928,132.525,479.909,132.525,512.11C132.525,544.311,142.186,573.292,161.506,595.833C180.827,618.374,209.808,631.255,245.23,631.255C264.55,631.255,280.651,628.035,299.972,618.374C316.072,611.934,332.173,599.053,348.274,589.393C364.374,576.513,377.255,563.632,393.355,550.752C406.236,534.651,419.116,521.77,431.997,512.11C419.116,496.009,406.236,479.909,393.355,467.028C393.355,467.028,393.355,467.028,393.355,467.028M869.934,428.387C850.613,405.846,824.852,396.186,789.431,396.186C770.11,396.186,750.789,399.406,734.689,405.846C718.588,412.286,699.267,421.947,683.167,431.607C667.066,441.267,650.965,454.148,638.085,467.028C625.204,479.909,612.324,492.789,599.443,508.89C609.104,521.77,621.984,534.651,638.085,547.531C650.965,560.412,667.066,576.513,683.167,586.173C699.267,599.053,715.368,608.714,731.469,615.154C747.569,621.594,766.89,628.035,786.211,628.035C821.632,628.035,847.393,615.154,869.934,592.613C889.255,570.072,898.915,541.091,898.915,508.89C898.915,479.909,889.255,450.928,869.934,428.387C869.934,428.387,869.934,428.387,869.934,428.387" class="icon-social-1_logo-500px"/><glyph unicode="&#x0042;" d="M413.782,546.012C413.782,546.012,509.894,552.42,509.894,667.754C509.894,783.089,429.8,837.552,330.485,837.552C330.485,837.552,147.872,837.552,147.872,837.552C147.872,837.552,141.464,837.552,141.464,837.552C141.464,837.552,0.5,837.552,0.5,837.552C0.5,837.552,0.5,203.213,0.5,203.213C0.5,203.213,141.464,203.213,141.464,203.213C141.464,203.213,147.872,203.213,147.872,203.213C147.872,203.213,333.688,203.213,333.688,203.213C333.688,203.213,535.524,196.805,535.524,392.233C532.32,385.826,541.931,546.012,413.782,546.012C413.782,546.012,413.782,546.012,413.782,546.012M147.872,722.218C147.872,722.218,308.059,722.218,308.059,722.218C308.059,722.218,330.485,722.218,330.485,722.218C330.485,722.218,375.337,722.218,375.337,654.939C375.337,587.661,349.707,578.05,317.67,578.05C317.67,578.05,147.872,578.05,147.872,578.05C147.872,578.05,147.872,722.218,147.872,722.218C147.872,722.218,147.872,722.218,147.872,722.218M324.077,312.14C324.077,312.14,147.872,312.14,147.872,312.14C147.872,312.14,147.872,481.938,147.872,481.938C147.872,481.938,333.688,481.938,333.688,481.938C333.688,481.938,400.967,481.938,400.967,395.437C397.763,321.751,349.707,312.14,324.077,312.14C324.077,312.14,324.077,312.14,324.077,312.14M801.434,674.162C557.95,674.162,557.95,430.678,557.95,430.678C557.95,430.678,541.931,187.194,801.434,187.194C801.434,187.194,1019.288,174.379,1019.288,356.992C1019.288,356.992,907.157,356.992,907.157,356.992C907.157,356.992,910.361,289.714,804.637,289.714C804.637,289.714,692.507,283.306,692.507,401.844C692.507,401.844,1022.491,401.844,1022.491,401.844C1022.491,398.641,1060.936,674.162,801.434,674.162C801.434,674.162,801.434,674.162,801.434,674.162M900.75,481.938C900.75,481.938,692.507,481.938,692.507,481.938C692.507,481.938,705.322,581.254,804.637,581.254C903.953,581.254,900.75,481.938,900.75,481.938C900.75,481.938,900.75,481.938,900.75,481.938M666.877,799.107C666.877,799.107,666.877,735.033,666.877,735.033C666.877,735.033,929.583,735.033,929.583,735.033C929.583,735.033,929.583,799.107,929.583,799.107C929.583,799.107,666.877,799.107,666.877,799.107" class="icon-social-1_logo-behance"/><glyph unicode="&#x0043;" d="M995.56,629.635C973.091,639.264,880.004,629.635,854.326,652.104C835.066,668.153,835.066,700.252,828.647,738.77C815.807,806.177,812.597,822.227,799.758,847.906C754.82,944.202,645.684,1024.449,549.388,1024.449C549.388,1024.449,321.487,1024.449,321.487,1024.449C144.944,1027.659,0.5,880.004,0.5,703.462C0.5,703.462,0.5,324.697,0.5,324.697C0.5,144.944,144.944,0.5,324.697,0.5C324.697,0.5,697.042,0.5,697.042,0.5C876.795,0.5,1021.239,144.944,1021.239,324.697C1021.239,324.697,1024.449,587.906,1024.449,587.906C1021.239,587.906,1021.239,620.005,995.56,629.635C995.56,629.635,995.56,629.635,995.56,629.635M327.907,761.239C327.907,761.239,507.66,761.239,507.66,761.239C542.968,761.239,568.647,732.35,568.647,700.252C568.647,664.943,539.758,639.264,507.66,639.264C507.66,639.264,327.907,639.264,327.907,639.264C292.598,639.264,266.919,668.153,266.919,700.252C266.919,735.56,292.598,761.239,327.907,761.239C327.907,761.239,327.907,761.239,327.907,761.239M693.832,266.919C693.832,266.919,327.907,266.919,327.907,266.919C292.598,266.919,266.919,295.808,266.919,327.907C266.919,363.215,295.808,388.894,327.907,388.894C327.907,388.894,693.832,388.894,693.832,388.894C729.141,388.894,754.82,360.005,754.82,327.907C754.82,295.808,725.931,266.919,693.832,266.919C693.832,266.919,693.832,266.919,693.832,266.919" class="icon-social-1_logo-blogger"/><glyph unicode="&#x0044;" d="M486.97,1017.294C486.97,1017.294,25.81,802.727,25.81,802.727C13,796.322,13,777.107,25.81,770.702C25.81,770.702,490.173,556.134,490.173,556.134C502.983,549.729,518.995,549.729,535.008,556.134C535.008,556.134,999.371,770.702,999.371,770.702C1012.181,777.107,1012.181,796.322,999.371,802.727C999.371,802.727,538.21,1017.294,538.21,1017.294C522.198,1026.902,502.983,1026.902,486.97,1017.294C486.97,1017.294,486.97,1017.294,486.97,1017.294M999.371,524.109C999.371,524.109,903.296,568.944,903.296,568.944C890.486,575.349,874.473,575.349,858.461,568.944C858.461,568.944,531.805,418.427,531.805,418.427C518.995,412.022,502.983,412.022,486.97,418.427C486.97,418.427,163.518,568.944,163.518,568.944C150.708,575.349,134.695,575.349,118.683,568.944C118.683,568.944,22.608,524.109,22.608,524.109C9.797,517.704,9.797,498.489,22.608,492.084C22.608,492.084,486.97,277.516,486.97,277.516C499.78,271.111,515.793,271.111,531.805,277.516C531.805,277.516,996.168,492.084,996.168,492.084C1015.383,498.489,1015.383,517.704,999.371,524.109C999.371,524.109,999.371,524.109,999.371,524.109M999.371,251.896C999.371,251.896,903.296,296.731,903.296,296.731C890.486,303.136,874.473,303.136,858.461,296.731C858.461,296.731,531.805,146.214,531.805,146.214C518.995,139.809,502.983,139.809,486.97,146.214C486.97,146.214,163.518,296.731,163.518,296.731C150.708,303.136,134.695,303.136,118.683,296.731C118.683,296.731,22.608,251.896,22.608,251.896C9.797,245.491,9.797,226.276,22.608,219.871C22.608,219.871,486.97,5.304,486.97,5.304C499.78,-1.101,515.793,-1.101,531.805,5.304C531.805,5.304,996.168,219.871,996.168,219.871C1015.383,223.074,1015.383,245.491,999.371,251.896C999.371,251.896,999.371,251.896,999.371,251.896" class="icon-social-1_logo-buffer"/><glyph unicode="&#x0045;" d="M304,992C304,992,720,992,720,992C720,992,1024,32,1024,32C1024,32,739.2,32,739.2,32C739.2,32,515.2,838.4,515.2,838.4C515.2,838.4,368,332.8,368,332.8C368,332.8,656,332.8,656,332.8C656,332.8,297.6,32,297.6,32C297.6,32,0,32,0,32C0,32,304,992,304,992" class="icon-social-1_logo-buysellads"/><glyph unicode="&#x0046;" d="M1014.323,680.543C1014.323,680.543,1014.323,680.543,1014.323,680.543C1014.323,683.691,1014.323,683.691,1014.323,686.84C1014.323,686.84,1014.323,686.84,1014.323,689.988C1014.323,689.988,1014.323,693.136,1014.323,693.136C1014.323,693.136,1014.323,693.136,1014.323,696.285C1014.323,696.285,1014.323,699.433,1014.323,699.433C1014.323,699.433,1014.323,699.433,1014.323,702.581C1014.323,702.581,1014.323,705.73,1011.174,705.73C1011.174,705.73,1011.174,705.73,1011.174,708.878C1011.174,708.878,1011.174,712.027,1008.026,712.027C1008.026,712.027,1008.026,712.027,1004.878,715.175C1004.878,715.175,1001.729,715.175,1001.729,718.323C1001.729,718.323,1001.729,718.323,998.581,718.323C998.581,718.323,998.581,718.323,998.581,718.323C998.581,718.323,535.774,1017.416,535.774,1017.416C520.032,1026.861,501.142,1026.861,488.549,1017.416C488.549,1017.416,25.742,708.878,25.742,708.878C25.742,708.878,25.742,708.878,25.742,708.878C25.742,708.878,25.742,708.878,22.593,708.878C22.593,708.878,19.445,708.878,19.445,705.73C19.445,705.73,19.445,705.73,16.297,702.581C16.297,702.581,16.297,702.581,13.148,699.433C13.148,699.433,13.148,699.433,13.148,696.285C13.148,696.285,13.148,693.136,10,693.136C10,693.136,10,693.136,10,689.988C10,689.988,10,686.84,10,686.84C10,686.84,10,686.84,10,683.691C10,683.691,10,680.543,10,680.543C10,680.543,10,680.543,10,677.395C10,677.395,10,674.246,10,674.246C10,674.246,10,674.246,10,671.098C10,667.95,10,667.95,10,664.801C10,664.801,10,359.412,10,359.412C10,356.263,10,356.263,10,353.115C10,353.115,10,353.115,10,349.967C10,349.967,10,346.818,10,346.818C10,346.818,10,346.818,10,343.67C10,343.67,10,340.522,10,340.522C10,340.522,10,340.522,10,337.373C10,337.373,10,334.225,10,334.225C10,334.225,10,334.225,10,331.076C10,331.076,10,327.928,13.148,327.928C13.148,327.928,13.148,327.928,13.148,324.78C13.148,324.78,13.148,321.631,16.297,321.631C16.297,321.631,16.297,321.631,19.445,318.483C19.445,318.483,22.593,318.483,22.593,315.335C22.593,315.335,22.593,315.335,25.742,315.335C25.742,315.335,25.742,315.335,25.742,315.335C25.742,315.335,485.4,6.797,485.4,6.797C491.697,0.5,501.142,0.5,510.587,0.5C520.032,0.5,526.329,3.648,535.774,6.797C535.774,6.797,995.433,331.076,995.433,331.076C995.433,331.076,995.433,331.076,995.433,331.076C995.433,331.076,995.433,331.076,998.581,331.076C998.581,331.076,1001.729,331.076,1001.729,334.225C1001.729,334.225,1001.729,334.225,1004.878,337.373C1004.878,337.373,1004.878,337.373,1008.026,340.522C1008.026,340.522,1008.026,340.522,1008.026,343.67C1008.026,343.67,1008.026,346.818,1011.174,346.818C1011.174,346.818,1011.174,346.818,1011.174,349.967C1011.174,349.967,1011.174,353.115,1011.174,353.115C1011.174,353.115,1011.174,353.115,1011.174,356.263C1011.174,356.263,1011.174,359.412,1011.174,359.412C1011.174,359.412,1011.174,359.412,1011.174,362.56C1011.174,362.56,1011.174,365.708,1011.174,365.708C1011.174,365.708,1011.174,365.708,1011.174,368.857C1011.174,372.005,1011.174,372.005,1011.174,375.153C1011.174,375.153,1011.174,680.543,1011.174,680.543C1014.323,674.246,1014.323,677.395,1014.323,680.543C1014.323,680.543,1014.323,680.543,1014.323,680.543M554.664,900.927C554.664,900.927,894.686,674.246,894.686,674.246C894.686,674.246,743.565,573.499,743.565,573.499C743.565,573.499,554.664,699.433,554.664,699.433C554.664,699.433,554.664,900.927,554.664,900.927C554.664,900.927,554.664,900.927,554.664,900.927M466.51,900.927C466.51,900.927,466.51,699.433,466.51,699.433C466.51,699.433,277.61,573.499,277.61,573.499C277.61,573.499,126.489,674.246,126.489,674.246C126.489,674.246,466.51,900.927,466.51,900.927C466.51,900.927,466.51,900.927,466.51,900.927M95.005,592.389C95.005,592.389,202.049,519.977,202.049,519.977C202.049,519.977,95.005,447.565,95.005,447.565C95.005,447.565,95.005,592.389,95.005,592.389C95.005,592.389,95.005,592.389,95.005,592.389M466.51,139.027C466.51,139.027,129.637,365.708,129.637,365.708C129.637,365.708,280.758,466.455,280.758,466.455C280.758,466.455,469.659,340.522,469.659,340.522C469.659,340.522,469.659,139.027,469.659,139.027C469.659,139.027,466.51,139.027,466.51,139.027M510.587,416.082C510.587,416.082,356.318,519.977,356.318,519.977C356.318,519.977,510.587,623.873,510.587,623.873C510.587,623.873,664.856,519.977,664.856,519.977C664.856,519.977,510.587,416.082,510.587,416.082C510.587,416.082,510.587,416.082,510.587,416.082M554.664,139.027C554.664,139.027,554.664,340.522,554.664,340.522C554.664,340.522,743.565,466.455,743.565,466.455C743.565,466.455,894.686,365.708,894.686,365.708C894.686,365.708,554.664,139.027,554.664,139.027C554.664,139.027,554.664,139.027,554.664,139.027M926.169,447.565C926.169,447.565,819.125,519.977,819.125,519.977C819.125,519.977,926.169,592.389,926.169,592.389C926.169,592.389,926.169,447.565,926.169,447.565C926.169,447.565,926.169,447.565,926.169,447.565" class="icon-social-1_logo-codepen"/><glyph unicode="&#x0047;" d="M1022.795,625.861C1022.795,664.081,1006.87,896.582,1006.87,896.582C1006.87,934.801,994.13,957.096,975.02,976.205C959.096,992.13,933.616,1008.055,895.397,1008.055C895.397,1008.055,662.896,1023.98,624.676,1023.98C567.347,1023.98,532.313,1027.165,462.244,953.911C427.21,918.876,48.201,539.868,32.277,523.943C16.352,508.018,-37.792,444.32,54.571,351.956C54.571,351.956,353.956,52.571,353.956,52.571C446.32,-39.792,510.018,14.352,525.943,30.277C541.868,46.201,920.876,425.21,955.911,460.244C1025.98,533.498,1022.795,571.717,1022.795,625.861C1022.795,625.861,1022.795,625.861,1022.795,625.861M618.307,501.649C618.307,501.649,748.889,441.135,748.889,441.135C748.889,441.135,701.115,355.141,701.115,355.141C701.115,355.141,580.087,434.765,580.087,434.765C576.902,437.95,573.717,437.95,570.532,437.95C567.347,437.95,564.163,437.95,560.978,434.765C554.608,431.58,551.423,425.21,551.423,418.84C551.423,418.84,560.978,275.517,560.978,275.517C560.978,275.517,465.429,275.517,465.429,275.517C465.429,275.517,465.429,275.517,465.429,275.517C465.429,275.517,471.799,418.84,471.799,418.84C471.799,425.21,468.614,431.58,462.244,434.765C455.874,437.95,449.504,437.95,446.32,434.765C446.32,434.765,334.846,355.141,334.846,355.141C334.846,355.141,283.887,437.95,283.887,437.95C283.887,437.95,414.47,501.649,414.47,501.649C420.84,504.834,424.025,511.203,424.025,517.573C424.025,523.943,420.84,530.313,414.47,533.498C414.47,533.498,283.887,594.012,283.887,594.012C283.887,594.012,331.662,680.006,331.662,680.006C331.662,680.006,452.689,600.382,452.689,600.382C459.059,597.197,465.429,597.197,468.614,600.382C474.984,603.567,478.169,609.937,478.169,616.307C478.169,616.307,468.614,759.629,468.614,759.629C468.614,759.629,564.163,759.629,564.163,759.629C564.163,759.629,557.793,616.307,557.793,616.307C557.793,609.937,560.978,603.567,567.347,600.382C573.717,597.197,580.087,597.197,583.272,600.382C583.272,600.382,701.115,680.006,701.115,680.006C701.115,680.006,752.074,597.197,752.074,597.197C752.074,597.197,621.492,533.498,621.492,533.498C615.122,530.313,611.937,523.943,611.937,517.573C608.752,511.203,611.937,504.834,618.307,501.649C618.307,501.649,618.307,501.649,618.307,501.649M841.253,775.554C806.218,775.554,780.739,804.218,780.739,836.068C780.739,871.102,809.403,896.582,841.253,896.582C876.287,896.582,901.767,867.917,901.767,836.068C901.767,801.033,873.102,775.554,841.253,775.554C841.253,775.554,841.253,775.554,841.253,775.554" class="icon-social-1_logo-creative-market"/><glyph unicode="&#x0048;" d="M832,1024C832,1024,643.2,1024,643.2,1024C643.2,1024,617.6,998.4,617.6,998.4C617.6,998.4,531.2,828.8,531.2,828.8C531.2,828.8,512,819.2,512,819.2C512,819.2,192,819.2,192,819.2C192,819.2,192,563.2,192,563.2C192,563.2,371.2,563.2,371.2,563.2C371.2,563.2,380.8,547.2,380.8,547.2C380.8,547.2,192,188.8,192,188.8C192,188.8,192,0,192,0C192,0,380.8,0,380.8,0C380.8,0,403.2,22.4,403.2,22.4C403.2,22.4,492.8,192,492.8,192C492.8,192,512,204.8,512,204.8C512,204.8,832,204.8,832,204.8C832,204.8,832,460.8,832,460.8C832,460.8,656,460.8,656,460.8C656,460.8,640,476.8,640,476.8C640,476.8,832,835.2,832,835.2C832,835.2,832,1024,832,1024" class="icon-social-1_logo-deviantart"/><glyph unicode="&#x0049;" d="M512,0C230.4,0,0,230.4,0,512C0,793.6,230.4,1024,512,1024C793.6,1024,1024,793.6,1024,512C1024,230.4,793.6,0,512,0C512,0,512,0,512,0M944,441.6C928,448,809.6,483.2,672,460.8C729.6,304,752,176,758.4,150.4C854.4,214.4,924.8,320,944,441.6C944,441.6,944,441.6,944,441.6M681.6,108.8C675.2,147.2,649.6,281.6,588.8,441.6C588.8,441.6,585.6,441.6,585.6,441.6C339.2,355.2,249.6,185.6,243.2,169.6C316.8,112,409.6,76.8,512,76.8C572.8,73.6,630.4,86.4,681.6,108.8C681.6,108.8,681.6,108.8,681.6,108.8M185.6,217.6C195.2,233.6,316.8,432,540.8,505.6C547.2,508.8,553.6,508.8,556.8,512C547.2,537.6,534.4,563.2,521.6,585.6C304,521.6,92.8,521.6,73.6,524.8C73.6,521.6,73.6,515.2,73.6,512C73.6,400,118.4,297.6,185.6,217.6C185.6,217.6,185.6,217.6,185.6,217.6M83.2,601.6C102.4,601.6,281.6,601.6,486.4,656C412.8,784,336,892.8,323.2,908.8C204.8,848,112,736,83.2,601.6C83.2,601.6,83.2,601.6,83.2,601.6M409.6,937.6C422.4,921.6,502.4,812.8,572.8,681.6C729.6,739.2,793.6,828.8,803.2,838.4C726.4,905.6,624,947.2,512,947.2C476.8,947.2,441.6,944,409.6,937.6C409.6,937.6,409.6,937.6,409.6,937.6M851.2,787.2C841.6,774.4,768,681.6,608,614.4C617.6,592,627.2,572.8,636.8,550.4C640,544,643.2,534.4,646.4,528C790.4,547.2,937.6,518.4,950.4,515.2C947.2,617.6,912,713.6,851.2,787.2C851.2,787.2,851.2,787.2,851.2,787.2" class="icon-social-1_logo-dribbble"/><glyph unicode="&#x004a;" d="M300.8,989.1C300.8,989.1,0,790.7,0,790.7C0,790.7,208,624.3,208,624.3C208,624.3,512,813.1,512,813.1C512,813.1,300.8,989.1,300.8,989.1M0,457.9C0,457.9,300.8,262.7,300.8,262.7C300.8,262.7,512,438.7,512,438.7C512,438.7,208,624.3,208,624.3C208,624.3,0,457.9,0,457.9M512,438.7C512,438.7,723.2,262.7,723.2,262.7C723.2,262.7,1024,457.9,1024,457.9C1024,457.9,816,624.3,816,624.3C816,624.3,512,438.7,512,438.7M1024,790.7C1024,790.7,723.2,989.1,723.2,989.1C723.2,989.1,512,813.1,512,813.1C512,813.1,816,624.3,816,624.3C816,624.3,1024,790.7,1024,790.7M512,400.3C512,400.3,300.8,224.3,300.8,224.3C300.8,224.3,211.2,281.9,211.2,281.9C211.2,281.9,211.2,217.9,211.2,217.9C211.2,217.9,512,35.5,512,35.5C512,35.5,816,217.9,816,217.9C816,217.9,816,281.9,816,281.9C816,281.9,723.2,224.3,723.2,224.3C723.2,224.3,512,400.3,512,400.3" class="icon-social-1_logo-dropbox"/><glyph unicode="&#x004b;" d="M829.719,1017.952C877.767,995.53,1066.756,591.926,903.393,242.777C772.061,-39.105,445.335,-39.105,281.971,60.195C141.031,143.478,-76.787,412.547,163.453,739.274C173.063,752.086,198.688,748.883,192.282,713.648C189.079,688.022,153.843,495.83,221.111,412.547C249.939,370.905,256.346,399.734,256.346,399.734C256.346,399.734,249.939,678.413,464.554,889.824C602.292,1014.749,791.281,1037.171,829.719,1017.952C829.719,1017.952,829.719,1017.952,829.719,1017.952" class="icon-social-1_logo-envato"/><glyph unicode="&#x004c;" d="M171.272,824.881C171.272,824.881,171.272,824.881,171.272,824.881C171.272,824.881,267.131,824.881,267.131,824.881C273.521,824.881,276.716,828.076,276.716,834.467C276.716,834.467,276.716,917.544,276.716,939.911C276.716,939.911,276.716,939.911,276.716,939.911C276.716,959.082,279.912,975.059,286.302,987.84C286.302,987.84,289.498,994.23,289.498,994.23C289.498,994.23,289.498,994.23,289.498,994.23C289.498,994.23,100.976,808.904,100.976,808.904C100.976,808.904,100.976,808.904,100.976,808.904C104.172,812.1,110.562,812.1,110.562,815.295C126.539,821.686,148.905,824.881,171.272,824.881C171.272,824.881,171.272,824.881,171.272,824.881M918.967,844.052C912.576,885.591,887.014,904.763,864.647,914.348C842.28,923.934,794.351,930.325,733.641,939.911C685.712,946.301,628.197,946.301,593.049,943.106C589.853,971.863,567.486,997.426,548.315,1007.011C487.605,1029.378,398.137,1026.183,375.77,1019.793C356.598,1013.402,337.427,1003.816,324.646,987.84C311.864,975.059,308.669,959.082,308.669,939.911C308.669,930.325,308.669,901.567,308.669,879.2C308.669,856.834,308.669,834.467,308.669,834.467C308.669,812.1,292.693,796.123,270.326,796.123C270.326,796.123,174.468,796.123,174.468,796.123C155.296,796.123,139.32,792.928,126.539,786.538C113.757,783.342,107.367,776.952,100.976,767.366C88.195,748.194,85,729.023,85,706.656C85,706.656,85,687.484,88.195,655.531C91.391,629.969,120.148,444.643,148.905,387.128C158.491,364.761,168.077,355.175,187.249,345.59C235.178,326.418,340.622,304.051,388.551,297.661C439.675,291.27,468.433,278.489,487.605,316.832C487.605,316.832,490.8,326.418,497.19,339.199C513.167,387.128,516.362,431.862,516.362,463.815C516.362,467.01,519.557,467.01,519.557,463.815C519.557,441.448,516.362,364.761,573.877,342.394C596.244,332.809,644.173,326.418,695.297,320.027C740.031,313.637,771.984,297.661,771.984,182.631C771.984,112.335,756.008,102.749,682.516,102.749C621.806,102.749,596.244,99.554,596.244,150.678C596.244,189.021,634.587,185.826,663.345,185.826C676.126,185.826,666.54,195.412,666.54,220.974C666.54,246.536,682.516,259.317,666.54,259.317C567.486,262.513,506.776,259.317,506.776,134.702C506.776,19.672,551.51,0.5,692.102,0.5C803.937,0.5,842.28,3.695,890.209,147.483C899.795,176.24,922.162,262.513,934.943,406.3C947.724,498.963,931.748,773.756,918.967,844.052C918.967,844.052,918.967,844.052,918.967,844.052M724.055,540.501C711.274,540.501,698.493,540.501,685.712,537.306C688.907,566.064,701.688,601.212,743.227,598.016C787.96,598.016,794.351,553.282,794.351,524.525C771.984,534.111,749.617,537.306,724.055,540.501C724.055,540.501,724.055,540.501,724.055,540.501" class="icon-social-1_logo-evernote"/><glyph unicode="&#x004d;" d="M983.9,1024C983.9,1024,43.1,1024,43.1,1024C20.7,1024,1.5,1004.8,1.5,982.4C1.5,982.4,1.5,44.8,1.5,44.8C1.5,19.2,20.7,0,43.1,0C43.1,0,545.5,0,545.5,0C545.5,0,545.5,384,545.5,384C545.5,384,417.5,384,417.5,384C417.5,384,417.5,544,417.5,544C417.5,544,545.5,544,545.5,544C545.5,544,545.5,672,545.5,672C545.5,803.2,628.7,870.4,747.1,870.4C804.7,870.4,852.7,864,865.5,864C865.5,864,865.5,726.4,865.5,726.4C865.5,726.4,782.3,726.4,782.3,726.4C718.3,726.4,702.3,694.4,702.3,649.6C702.3,649.6,702.3,544,702.3,544C702.3,544,862.3,544,862.3,544C862.3,544,830.3,384,830.3,384C830.3,384,702.3,384,702.3,384C702.3,384,705.5,0,705.5,0C705.5,0,980.7,0,980.7,0C1003.1,0,1022.3,19.2,1022.3,41.6C1022.3,41.6,1022.3,982.4,1022.3,982.4C1025.5,1004.8,1006.3,1024,983.9,1024C983.9,1024,983.9,1024,983.9,1024" class="icon-social-1_logo-facebook"/><glyph unicode="&#x004e;" d="M967.491,557.069C848.952,675.608,733.616,790.944,615.076,909.484C599.057,925.503,583.039,944.725,560.612,954.337C538.186,963.948,512.555,967.152,486.925,960.744C464.499,954.337,445.276,944.725,432.461,928.706C297.903,797.352,166.548,665.997,35.193,534.642C19.174,518.623,9.563,499.401,3.155,480.178C-6.456,441.733,6.359,400.084,35.193,371.25C128.103,278.34,221.012,185.431,313.922,92.522C333.144,70.095,365.182,60.484,394.016,60.484C470.906,60.484,544.593,60.484,621.484,60.484C656.725,57.28,688.763,70.095,714.393,95.725C797.691,179.023,884.193,265.525,967.491,348.823C980.306,361.639,996.325,374.454,1005.937,390.472C1025.159,419.306,1028.363,460.956,1018.752,492.993C1009.14,518.623,986.714,537.846,967.491,557.069C967.491,557.069,967.491,557.069,967.491,557.069M307.514,406.491C294.699,390.472,269.069,393.676,249.846,396.88C233.827,409.695,217.808,425.714,201.789,444.937C195.382,454.548,204.993,464.159,211.401,470.567C297.903,557.069,384.405,643.571,470.906,730.072C483.722,742.888,493.333,752.499,506.148,762.11C518.963,768.518,525.371,755.703,534.982,749.295C551.001,733.276,570.223,717.257,583.039,698.035C589.446,688.423,583.039,678.812,576.631,672.405C486.925,585.903,397.22,496.197,307.514,406.491C307.514,406.491,307.514,406.491,307.514,406.491M583.039,201.45C570.223,185.431,554.205,169.412,538.186,156.597C522.167,153.393,506.148,153.393,493.333,156.597C477.314,163.005,467.703,179.023,458.091,188.635C448.48,198.246,435.665,207.857,448.48,220.672C467.703,239.895,486.925,259.118,506.148,278.34C512.555,284.748,525.371,281.544,531.778,275.137C547.797,259.118,567.02,239.895,583.039,223.876C586.242,220.672,589.446,211.061,583.039,201.45C583.039,201.45,583.039,201.45,583.039,201.45M576.631,435.325C528.574,387.269,477.314,336.008,429.257,287.952C416.442,271.933,390.812,275.137,371.589,278.34C352.367,291.156,339.552,307.174,323.533,323.193C313.922,332.805,323.533,345.62,329.94,352.027C377.997,400.084,429.257,451.344,477.314,499.401C486.925,509.012,493.333,518.623,506.148,525.031C515.759,528.235,525.371,518.623,531.778,512.216C547.797,496.197,567.02,480.178,583.039,460.956C589.446,451.344,583.039,441.733,576.631,435.325C576.631,435.325,576.631,435.325,576.631,435.325" class="icon-social-1_logo-feedly"/><glyph unicode="&#x004f;" d="M983.9,1024C983.9,1024,43.1,1024,43.1,1024C20.7,1024,1.5,1004.8,1.5,982.4C1.5,982.4,1.5,44.8,1.5,44.8C1.5,19.2,20.7,0,43.1,0C43.1,0,980.7,0,980.7,0C1003.1,0,1022.3,19.2,1022.3,41.6C1022.3,41.6,1022.3,982.4,1022.3,982.4C1025.5,1004.8,1006.3,1024,983.9,1024C983.9,1024,983.9,1024,983.9,1024M299.1,342.4C206.3,342.4,129.5,419.2,129.5,512C129.5,604.8,206.3,681.6,299.1,681.6C391.9,681.6,468.7,604.8,468.7,512C471.9,419.2,395.1,342.4,299.1,342.4C299.1,342.4,299.1,342.4,299.1,342.4M727.9,342.4C635.1,342.4,558.3,419.2,558.3,512C558.3,604.8,635.1,681.6,727.9,681.6C820.7,681.6,897.5,604.8,897.5,512C897.5,419.2,820.7,342.4,727.9,342.4C727.9,342.4,727.9,342.4,727.9,342.4" class="icon-social-1_logo-flickr"/><glyph unicode="&#x0050;" d="M512,1011.894C230.4,1011.894,0,781.494,0,499.894C0,272.694,147.2,80.694,348.8,13.494C374.4,10.294,384,23.094,384,39.094C384,51.894,384,83.894,384,125.494C240,93.494,211.2,192.694,211.2,192.694C188.8,250.294,153.6,266.294,153.6,266.294C105.6,298.294,156.8,298.294,156.8,298.294C208,295.094,236.8,247.094,236.8,247.094C281.6,170.294,355.2,192.694,387.2,205.494C390.4,237.494,406.4,259.894,419.2,272.694C304,285.494,185.6,330.294,185.6,525.494C185.6,579.894,204.8,627.894,236.8,663.094C230.4,675.894,214.4,727.094,243.2,797.494C243.2,797.494,284.8,810.294,384,746.294C425.6,759.094,467.2,762.294,512,762.294C556.8,762.294,598.4,755.894,640,746.294C739.2,813.494,780.8,800.694,780.8,800.694C809.6,730.294,790.4,679.094,787.2,666.294C819.2,631.094,838.4,586.294,838.4,528.694C838.4,333.494,720,288.694,604.8,275.894C624,259.894,640,227.894,640,179.894C640,112.694,640,55.094,640,39.094C640,26.294,649.6,10.294,675.2,13.494C876.8,80.694,1024,272.694,1024,499.894C1024,781.494,793.6,1011.894,512,1011.894C512,1011.894,512,1011.894,512,1011.894" class="icon-social-1_logo-github"/><glyph unicode="&#x0051;" d="M470.4,940.9C480,934.5,486.4,928.1,499.2,918.5C508.8,908.9,518.4,896.1,528,883.3C537.6,870.5,544,854.5,550.4,835.3C556.8,816.1,560,796.9,560,771.3C560,726.5,550.4,691.3,528,662.5C518.4,649.7,508.8,636.9,496,627.3C483.2,617.7,470.4,604.9,457.6,595.3C451.2,588.9,441.6,579.3,435.2,569.7C428.8,560.1,422.4,547.3,422.4,534.5C422.4,521.7,425.6,512.1,435.2,502.5C441.6,492.9,448,486.5,454.4,480.1C454.4,480.1,499.2,444.9,499.2,444.9C528,422.5,550.4,400.1,569.6,374.5C588.8,348.9,598.4,313.7,598.4,272.1C598.4,211.3,569.6,156.9,515.2,112.1C457.6,64.1,374.4,38.5,265.6,38.5C176,38.5,108.8,57.7,64,92.9C22.4,124.9,0,163.3,0,211.3C0,233.7,6.4,259.3,22.4,288.1C35.2,316.9,64,342.5,99.2,361.7C140.8,384.1,185.6,400.1,230.4,406.5C275.2,412.9,313.6,416.1,345.6,416.1C336,428.9,326.4,441.7,320,454.5C310.4,467.3,307.2,483.3,307.2,502.5C307.2,512.1,310.4,521.7,313.6,531.3C316.8,537.7,320,547.3,320,553.7C304,550.5,291.2,550.5,278.4,550.5C208,550.5,156.8,572.9,121.6,614.5C83.2,652.9,64,697.7,64,748.9C64,809.7,89.6,867.3,144,915.3C179.2,944.1,217.6,963.3,259.2,972.9C297.6,979.3,336,985.7,371.2,985.7C371.2,985.7,630.4,985.7,630.4,985.7C630.4,985.7,550.4,940.9,550.4,940.9C550.4,940.9,470.4,940.9,470.4,940.9C470.4,940.9,470.4,940.9,470.4,940.9M518.4,220.9C518.4,252.9,508.8,281.7,486.4,304.1C464,326.5,428.8,355.3,380.8,387.3C371.2,387.3,361.6,387.3,352,387.3C345.6,387.3,329.6,387.3,300.8,384.1C275.2,380.9,246.4,374.5,217.6,364.9C211.2,361.7,201.6,358.5,188.8,355.3C176,348.9,163.2,342.5,153.6,332.9C140.8,323.3,131.2,310.5,124.8,294.5C115.2,278.5,112,259.3,112,236.9C112,192.1,131.2,156.9,172.8,128.1C211.2,99.3,265.6,86.5,332.8,83.3C393.6,83.3,441.6,96.1,473.6,121.7C502.4,150.5,518.4,182.5,518.4,220.9C518.4,220.9,518.4,220.9,518.4,220.9M339.2,585.7C374.4,585.7,403.2,598.5,425.6,620.9C435.2,636.9,444.8,652.9,448,668.9C448,688.1,448,700.9,448,713.7C448,761.7,435.2,812.9,409.6,864.1C396.8,889.7,380.8,908.9,361.6,921.7C342.4,934.5,316.8,944.1,291.2,944.1C256,944.1,227.2,928.1,204.8,902.5C182.4,873.7,172.8,844.9,172.8,809.7C172.8,764.9,188.8,716.9,214.4,668.9C227.2,646.5,243.2,627.3,265.6,611.3C288,595.3,310.4,585.7,339.2,585.7C339.2,585.7,339.2,585.7,339.2,585.7M1024,540.9C1024,540.9,896,540.9,896,540.9C896,540.9,896,668.9,896,668.9C896,668.9,832,668.9,832,668.9C832,668.9,832,540.9,832,540.9C832,540.9,704,540.9,704,540.9C704,540.9,704,476.9,704,476.9C704,476.9,832,476.9,832,476.9C832,476.9,832,348.9,832,348.9C832,348.9,896,348.9,896,348.9C896,348.9,896,476.9,896,476.9C896,476.9,1024,476.9,1024,476.9C1024,476.9,1024,540.9,1024,540.9C1024,540.9,1024,540.9,1024,540.9" class="icon-social-1_logo-google-plus"/><glyph unicode="&#x0052;" d="M902.4,1024C902.4,1024,121.6,1024,121.6,1024C54.4,1024,0,969.6,0,902.4C0,902.4,0,121.6,0,121.6C0,54.4,54.4,0,121.6,0C121.6,0,902.4,0,902.4,0C969.6,0,1024,54.4,1024,121.6C1024,121.6,1024,902.4,1024,902.4C1024,969.6,969.6,1024,902.4,1024C902.4,1024,902.4,1024,902.4,1024M768,896C768,896,864,896,864,896C883.2,896,896,883.2,896,864C896,864,896,768,896,768C896,748.8,883.2,736,864,736C864,736,768,736,768,736C748.8,736,736,748.8,736,768C736,768,736,864,736,864C736,883.2,748.8,896,768,896C768,896,768,896,768,896M512,707.2C620.8,707.2,710.4,620.8,710.4,512C710.4,403.2,620.8,316.8,512,316.8C403.2,316.8,313.6,403.2,313.6,512C316.8,620.8,403.2,707.2,512,707.2C512,707.2,512,707.2,512,707.2M896,96C896,96,128,96,128,96C108.8,96,96,108.8,96,128C96,128,96,608,96,608C96,608,224,608,224,608C208,582.4,201.6,540.8,201.6,512C201.6,339.2,342.4,201.6,512,201.6C684.8,201.6,822.4,342.4,822.4,512C822.4,540.8,819.2,585.6,796.8,608C796.8,608,924.8,608,924.8,608C924.8,608,924.8,128,924.8,128C928,108.8,915.2,96,896,96C896,96,896,96,896,96" class="icon-social-1_logo-instagram"/><glyph unicode="&#x0053;" d="M452.614,290.701C452.614,290.701,414.094,393.422,414.094,393.422C414.094,393.422,353.103,326.011,260.013,326.011C179.762,326.011,121.981,396.632,121.981,508.983C121.981,653.434,195.812,704.795,266.433,704.795C369.154,704.795,404.464,637.384,430.144,550.713C430.144,550.713,468.665,431.942,468.665,431.942C507.185,316.381,577.806,226.5,780.038,226.5C924.489,226.5,1024,271.44,1024,390.212C1024,486.513,969.429,534.663,869.918,557.133C869.918,557.133,796.088,573.183,796.088,573.183C744.727,586.024,728.677,605.284,728.677,640.594C728.677,679.114,760.777,704.795,812.138,704.795C869.918,704.795,898.809,682.324,905.229,634.174C905.229,634.174,1024,647.014,1024,647.014C1014.37,752.945,940.539,797.886,821.768,797.886C715.837,797.886,613.116,759.365,613.116,630.964C613.116,550.713,651.636,499.353,751.147,476.882C751.147,476.882,831.398,457.622,831.398,457.622C892.389,444.782,911.649,419.102,911.649,383.792C911.649,338.851,869.918,322.801,789.668,322.801C670.897,322.801,622.746,383.792,593.856,470.462C593.856,470.462,555.335,589.234,555.335,589.234C507.185,743.315,426.934,797.886,269.643,797.886C93.091,797.886,0,688.745,0,502.563C0,322.801,93.091,226.5,256.803,226.5C388.414,226.5,452.614,290.701,452.614,290.701C452.614,290.701,452.614,290.701,452.614,290.701C452.614,290.701,452.614,290.701,452.614,290.701" class="icon-social-1_logo-lastfm"/><glyph unicode="&#x0054;" d="M983.9,1024C983.9,1024,43.1,1024,43.1,1024C20.7,1024,1.5,1004.8,1.5,982.4C1.5,982.4,1.5,44.8,1.5,44.8C1.5,19.2,20.7,0,43.1,0C43.1,0,980.7,0,980.7,0C1003.1,0,1022.3,19.2,1022.3,41.6C1022.3,41.6,1022.3,982.4,1022.3,982.4C1025.5,1004.8,1006.3,1024,983.9,1024C983.9,1024,983.9,1024,983.9,1024M305.5,150.4C305.5,150.4,151.9,150.4,151.9,150.4C151.9,150.4,151.9,640,151.9,640C151.9,640,305.5,640,305.5,640C305.5,640,305.5,150.4,305.5,150.4C305.5,150.4,305.5,150.4,305.5,150.4M228.7,707.2C180.7,707.2,139.1,745.6,139.1,796.8C139.1,844.8,177.5,886.4,228.7,886.4C276.7,886.4,318.3,848,318.3,796.8C318.3,745.6,276.7,707.2,228.7,707.2C228.7,707.2,228.7,707.2,228.7,707.2M875.1,150.4C875.1,150.4,724.7,150.4,724.7,150.4C724.7,150.4,724.7,387.2,724.7,387.2C724.7,444.8,724.7,515.2,644.7,515.2C564.7,515.2,555.1,454.4,555.1,390.4C555.1,390.4,555.1,147.2,555.1,147.2C555.1,147.2,404.7,147.2,404.7,147.2C404.7,147.2,404.7,640,404.7,640C404.7,640,545.5,640,545.5,640C545.5,640,545.5,572.8,545.5,572.8C545.5,572.8,548.7,572.8,548.7,572.8C567.9,611.2,619.1,652.8,692.7,652.8C846.3,652.8,875.1,550.4,875.1,419.2C875.1,419.2,875.1,150.4,875.1,150.4C875.1,150.4,875.1,150.4,875.1,150.4" class="icon-social-1_logo-linkedin"/><glyph unicode="&#x0055;" d="M681.6,664.2C681.6,538.568,817.6,460.04,926.4,522.856C976.896,552.008,1008,605.896,1008,664.2C1008,789.832,872,868.36,763.2,805.544C712.704,776.392,681.6,722.504,681.6,664.2M329.6,619.4C329.6,506.088,452.256,435.272,550.4,491.912C595.936,518.216,624,566.824,624,619.4C624,732.712,501.344,803.528,403.2,746.888C357.664,720.584,329.6,671.976,329.6,619.4M12.8,574.6C12.8,473.608,122.144,410.472,209.6,460.968C250.208,484.424,275.2,527.72,275.2,574.6C275.2,675.592,165.856,738.728,78.4,688.232C37.792,664.776,12.8,621.48,12.8,574.6M144,414.6C60.8,414.6,0,341,0,264.2C0,264.2,0,213,0,213C0,213,0,213,0,213C0,206.6,6.4,200.2,12.8,200.2C12.8,200.2,16,200.2,16,200.2C16,200.2,268.8,200.2,268.8,200.2C268.8,200.2,272,200.2,272,200.2C278.4,200.2,284.8,206.6,284.8,213C284.8,213,284.8,213,284.8,213C284.8,213,284.8,264.2,284.8,264.2C291.2,341,227.2,414.6,144,414.6C144,414.6,144,414.6,144,414.6M476.8,437C384,437,316.8,353.8,316.8,270.6C316.8,270.6,316.8,213,316.8,213C316.8,213,316.8,213,316.8,213C316.8,203.4,323.2,197,332.8,197C332.8,197,339.2,197,339.2,197C339.2,197,620.8,197,620.8,197C620.8,197,627.2,197,627.2,197C636.8,197,643.2,203.4,643.2,213C643.2,213,643.2,213,643.2,213C643.2,213,643.2,270.6,643.2,270.6C640,357,569.6,437,476.8,437C476.8,437,476.8,437,476.8,437M844.8,465.8C742.4,465.8,665.6,376.2,665.6,280.2C665.6,280.2,665.6,216.2,665.6,216.2C665.6,216.2,665.6,216.2,665.6,216.2C665.6,206.6,672,200.2,681.6,200.2C681.6,200.2,688,200.2,688,200.2C688,200.2,1001.6,200.2,1001.6,200.2C1001.6,200.2,1008,200.2,1008,200.2C1017.6,200.2,1024,206.6,1024,216.2C1024,216.2,1024,216.2,1024,216.2C1024,216.2,1024,280.2,1024,280.2C1024,373,947.2,465.8,844.8,465.8C844.8,465.8,844.8,465.8,844.8,465.8" class="icon-social-1_logo-myspace"/><glyph unicode="&#x0056;" d="M860.294,764.8C860.294,764.8,860.294,764.8,860.294,764.8C860.294,764.8,860.294,764.8,860.294,764.8C860.294,764.8,860.294,764.8,860.294,764.8M860.294,764.8C860.294,768,860.294,764.8,860.294,764.8C860.294,764.8,860.294,764.8,860.294,764.8C860.294,764.8,860.294,764.8,860.294,764.8M815.494,947.2C767.494,1001.6,684.294,1024,572.294,1024C572.294,1024,255.494,1024,255.494,1024C233.094,1024,213.894,1008,210.694,985.6C210.694,985.6,79.494,144,79.494,144C76.294,128,89.094,112,105.094,112C105.094,112,300.294,112,300.294,112C300.294,112,348.294,425.6,348.294,425.6C348.294,425.6,348.294,416,348.294,416C351.494,438.4,370.694,454.4,393.094,454.4C393.094,454.4,485.894,454.4,485.894,454.4C668.294,454.4,812.294,528,853.894,745.6C853.894,752,857.094,764.8,857.094,764.8C873.094,844.8,860.294,899.2,815.494,947.2C815.494,947.2,815.494,947.2,815.494,947.2M908.294,723.2C863.494,512,716.294,400,485.894,400C485.894,400,402.694,400,402.694,400C402.694,400,338.694,0,338.694,0C338.694,0,473.094,0,473.094,0C492.294,0,508.294,12.8,511.494,35.2C511.494,35.2,514.694,44.8,514.694,44.8C514.694,44.8,546.694,243.2,546.694,243.2C546.694,243.2,549.894,252.8,549.894,252.8C553.094,272,569.094,288,588.294,288C588.294,288,613.894,288,613.894,288C773.894,288,898.694,352,937.094,540.8C953.094,614.4,946.694,678.4,908.294,723.2C908.294,723.2,908.294,723.2,908.294,723.2" class="icon-social-1_logo-paypal"/><glyph unicode="&#x0057;" d="M512,1024C230.4,1024,0,793.6,0,512C0,294.4,134.4,108.8,326.4,35.2C323.2,76.8,316.8,137.6,329.6,182.4C339.2,220.8,390.4,438.4,390.4,438.4C390.4,438.4,374.4,470.4,374.4,515.2C374.4,585.6,416,640,467.2,640C512,640,531.2,608,531.2,566.4C531.2,521.6,502.4,457.6,489.6,396.8C476.8,345.6,515.2,304,566.4,304C656,304,726.4,400,726.4,537.6C726.4,659.2,636.8,745.6,512,745.6C364.8,745.6,281.6,636.8,281.6,524.8C281.6,480,297.6,435.2,320,406.4C323.2,400,323.2,396.8,323.2,390.4C320,374.4,310.4,339.2,310.4,332.8C304,323.2,297.6,320,288,326.4C224,355.2,185.6,451.2,185.6,524.8C185.6,684.8,304,835.2,524.8,835.2C704,835.2,841.6,707.2,841.6,540.8C841.6,364.8,729.6,220.8,576,220.8C524.8,220.8,476.8,246.4,457.6,278.4C457.6,278.4,432,179.2,425.6,156.8C412.8,112,384,57.6,361.6,22.4C409.6,6.4,460.8,0,512,0C793.6,0,1024,230.4,1024,512C1024,793.6,793.6,1024,512,1024C512,1024,512,1024,512,1024" class="icon-social-1_logo-pinterest"/><glyph unicode="&#x0058;" d="M579.2,665.6C579.2,665.6,579.2,665.6,579.2,665.6C579.2,665.6,435.2,665.6,435.2,665.6C435.2,665.6,435.2,512,435.2,512C435.2,512,579.2,512,579.2,512C579.2,512,579.2,512,579.2,512C620.8,512,656,547.2,656,588.8C656,630.4,624,665.6,579.2,665.6C579.2,665.6,579.2,665.6,579.2,665.6M512,1024C230.4,1024,0,793.6,0,512C0,230.4,230.4,0,512,0C793.6,0,1024,230.4,1024,512C1024,793.6,793.6,1024,512,1024C512,1024,512,1024,512,1024M579.2,409.6C579.2,409.6,579.2,409.6,579.2,409.6C579.2,409.6,435.2,409.6,435.2,409.6C435.2,409.6,435.2,256,435.2,256C435.2,256,332.8,256,332.8,256C332.8,256,332.8,768,332.8,768C332.8,768,579.2,768,579.2,768C579.2,768,579.2,768,579.2,768C678.4,768,758.4,688,758.4,588.8C758.4,489.6,678.4,409.6,579.2,409.6C579.2,409.6,579.2,409.6,579.2,409.6" class="icon-social-1_logo-product-hunt"/><glyph unicode="&#x0059;" d="M1024,520.2C1024,587.4,969.6,641.8,902.4,641.8C873.6,641.8,844.8,632.2,825.6,613C752,661,656,689.8,553.6,693C553.6,693,608,862.6,608,862.6C608,862.6,752,830.6,752,830.6C755.2,776.2,800,734.6,854.4,734.6C912,734.6,956.8,779.4,956.8,837C956.8,894.6,912,939.4,854.4,939.4C816,939.4,780.8,917,761.6,885C761.6,885,592,926.6,592,926.6C579.2,929.8,563.2,920.2,560,907.4C560,907.4,492.8,699.4,492.8,699.4C384,696.2,278.4,667.4,198.4,619.4C176,635.4,150.4,645,121.6,645C54.4,645,0,590.6,0,523.4C0,481.8,22.4,443.4,54.4,421C54.4,411.4,51.2,401.8,51.2,392.2C51.2,305.8,99.2,229,188.8,171.4C275.2,113.8,387.2,85,508.8,85C630.4,85,742.4,117,828.8,171.4C918.4,229,966.4,309,966.4,392.2C966.4,401.8,966.4,411.4,963.2,417.8C1001.6,437,1024,475.4,1024,520.2C1024,520.2,1024,520.2,1024,520.2M854.4,885C880,885,902.4,862.6,902.4,837C902.4,811.4,880,789,854.4,789C828.8,789,806.4,811.4,806.4,837C806.4,862.6,828.8,885,854.4,885C854.4,885,854.4,885,854.4,885M291.2,443.4C291.2,481.8,323.2,513.8,361.6,513.8C400,513.8,432,481.8,432,443.4C432,405,400,373,361.6,373C323.2,373,291.2,405,291.2,443.4C291.2,443.4,291.2,443.4,291.2,443.4M681.6,238.6C646.4,203.4,592,184.2,512,184.2C512,184.2,512,184.2,512,184.2C512,184.2,512,184.2,512,184.2C435.2,184.2,380.8,200.2,342.4,238.6C332.8,248.2,332.8,267.4,342.4,277C352,286.6,371.2,286.6,380.8,277C406.4,251.4,448,241.8,508.8,241.8C508.8,241.8,508.8,241.8,508.8,241.8C508.8,241.8,508.8,241.8,508.8,241.8C569.6,241.8,611.2,254.6,636.8,277C646.4,286.6,665.6,286.6,675.2,277C691.2,267.4,691.2,251.4,681.6,238.6C681.6,238.6,681.6,238.6,681.6,238.6M665.6,373C627.2,373,595.2,405,595.2,443.4C595.2,481.8,627.2,513.8,665.6,513.8C704,513.8,736,481.8,736,443.4C736,405,704,373,665.6,373C665.6,373,665.6,373,665.6,373" class="icon-social-1_logo-reddit"/><glyph unicode="&#x005a;" d="M0.5,146.474C0.5,33.895,122.366,-36.49,219.881,19.818C265.147,45.925,293.009,94.225,293.009,146.474C293.009,259.054,171.142,329.438,73.627,273.131C28.361,247.024,0.5,198.724,0.5,146.474M1024.28,0.22C1024.28,0.22,830.493,0.22,830.493,0.22C830.493,457.265,457.545,826.557,0.5,826.557C0.5,826.557,0.5,1024,0.5,1024C567.235,1024,1024.28,563.299,1024.28,0.22C1024.28,0.22,1024.28,0.22,1024.28,0.22M684.239,0.22C684.239,0.22,490.452,0.22,490.452,0.22C490.452,267.134,271.07,486.516,0.5,486.516C0.5,486.516,0.5,680.302,0.5,680.302C377.105,680.302,684.239,376.825,684.239,0.22C684.239,0.22,684.239,0.22,684.239,0.22" class="icon-social-1_logo-rss"/><glyph unicode="&#x0061;" d="M849.7,825.6C849.7,832,843.3,835.2,840.1,835.2C836.9,835.2,756.9,841.6,756.9,841.6C756.9,841.6,702.5,892.8,696.1,899.2C689.7,905.6,676.9,902.4,673.7,902.4C673.7,902.4,660.9,899.2,641.7,892.8C625.7,944,593.7,992,536.1,992C536.1,992,532.9,992,532.9,992C516.9,1014.4,497.7,1024,478.5,1024C347.3,1024,283.3,857.6,264.1,774.4C212.9,758.4,174.5,748.8,171.3,745.6C142.5,736,142.5,736,139.3,710.4C136.1,691.2,62.5,108.8,62.5,108.8C62.5,108.8,644.9,0,644.9,0C644.9,0,961.7,67.2,961.7,67.2C961.7,67.2,849.7,819.2,849.7,825.6C849.7,825.6,849.7,825.6,849.7,825.6M526.5,864C526.5,860.8,526.5,860.8,526.5,857.6C494.5,848,459.3,838.4,424.1,825.6C443.3,902.4,481.7,937.6,513.7,950.4C523.3,931.2,526.5,902.4,526.5,864C526.5,864,526.5,864,526.5,864M475.3,988.8C481.7,988.8,488.1,985.6,491.3,982.4C449.7,963.2,404.9,912,385.7,812.8C356.9,803.2,331.3,796.8,305.7,787.2C328.1,864,379.3,988.8,475.3,988.8C475.3,988.8,475.3,988.8,475.3,988.8M497.7,540.8C497.7,540.8,462.5,560,420.9,560C360.1,560,356.9,521.6,356.9,512C356.9,457.6,494.5,438.4,494.5,313.6C494.5,214.4,433.7,153.6,350.5,153.6C251.3,153.6,200.1,214.4,200.1,214.4C200.1,214.4,225.7,304,225.7,304C225.7,304,276.9,259.2,321.7,259.2C350.5,259.2,363.3,281.6,363.3,297.6C363.3,368,251.3,371.2,251.3,483.2C251.3,579.2,318.5,672,459.3,672C513.7,672,539.3,656,539.3,656C539.3,656,497.7,540.8,497.7,540.8C497.7,540.8,497.7,540.8,497.7,540.8M561.7,867.2C561.7,870.4,561.7,873.6,561.7,876.8C561.7,908.8,558.5,934.4,548.9,956.8C577.7,953.6,596.9,918.4,609.7,883.2C596.9,876.8,580.9,873.6,561.7,867.2C561.7,867.2,561.7,867.2,561.7,867.2" class="icon-social-1_logo-shopify"/><glyph unicode="&#x0062;" d="M427.584,990.696C424.37,990.696,424.37,993.911,421.155,993.911C417.94,993.911,417.94,993.911,414.725,993.911C414.725,993.911,427.584,990.696,427.584,990.696C427.584,990.696,427.584,990.696,427.584,990.696M38.579,604.905C38.579,601.69,38.579,601.69,38.579,598.475C38.579,595.26,41.794,595.26,41.794,592.045C41.794,592.045,38.579,604.905,38.579,604.905C38.579,604.905,38.579,604.905,38.579,604.905M990.196,424.87C990.196,428.084,990.196,428.084,990.196,431.299C990.196,434.514,986.981,434.514,986.981,437.729C986.981,437.729,990.196,424.87,990.196,424.87C990.196,424.87,990.196,424.87,990.196,424.87M594.76,42.294C597.975,42.294,597.975,39.079,601.19,39.079C604.405,39.079,604.405,39.079,607.62,39.079C607.62,39.079,594.76,42.294,594.76,42.294C594.76,42.294,594.76,42.294,594.76,42.294M993.411,428.084C993.411,424.87,993.411,424.87,993.411,421.655C993.411,421.655,990.196,431.299,990.196,431.299C990.196,431.299,990.196,431.299,993.411,428.084C999.84,457.019,1003.055,485.953,1003.055,514.887C1003.055,579.186,990.196,643.484,964.476,704.568C938.757,762.436,906.608,813.875,861.599,858.884C816.59,903.893,765.151,939.257,707.283,961.761C642.984,990.696,578.686,1003.555,514.387,1003.555C482.238,1003.555,453.304,1000.34,421.155,993.911C421.155,993.911,421.155,993.911,421.155,993.911C424.37,993.911,424.37,990.696,427.584,990.696C427.584,990.696,417.94,990.696,417.94,990.696C421.155,990.696,421.155,990.696,424.37,990.696C382.576,1013.2,337.567,1022.845,289.343,1022.845C212.185,1029.275,138.242,997.125,83.588,942.472C28.934,891.033,0,817.09,0,739.932C0,691.708,12.86,643.484,35.364,601.69C35.364,604.905,35.364,604.905,35.364,608.12C35.364,608.12,38.579,598.475,38.579,598.475C38.579,598.475,35.364,601.69,35.364,604.905C32.149,575.971,28.934,550.251,28.934,521.317C28.934,457.019,41.794,392.72,67.513,331.637C93.233,273.768,125.382,222.33,170.391,177.321C215.4,132.312,266.838,96.948,324.707,74.443C385.791,45.509,450.089,32.649,514.387,32.649C543.322,32.649,572.256,35.864,597.975,39.079C594.76,39.079,594.76,42.294,591.545,42.294C591.545,42.294,601.19,39.079,601.19,39.079C597.975,39.079,597.975,39.079,594.76,39.079C636.554,13.36,687.993,0.5,736.217,0.5C813.375,0.5,884.103,29.434,938.757,84.088C993.411,138.742,1022.345,209.47,1022.345,286.628C1028.775,338.067,1015.915,386.291,993.411,428.084C993.411,428.084,993.411,428.084,993.411,428.084M517.602,219.115C343.997,219.115,266.838,302.703,266.838,367.001C266.838,399.15,289.343,421.655,324.707,421.655C398.65,421.655,379.361,315.562,517.602,315.562C588.331,315.562,626.91,354.141,626.91,392.72C626.91,415.225,614.05,440.944,569.041,453.804C569.041,453.804,414.725,492.383,414.725,492.383C292.558,524.532,270.053,588.831,270.053,653.129C270.053,784.941,392.22,833.165,507.957,833.165C614.05,833.165,739.432,775.296,739.432,694.923C739.432,662.774,710.498,643.484,678.348,643.484C614.05,643.484,626.91,730.287,501.528,730.287C437.229,730.287,405.08,701.353,405.08,659.559C405.08,617.765,453.304,604.905,498.313,595.26C498.313,595.26,610.835,569.541,610.835,569.541C736.217,540.607,768.366,469.878,768.366,399.15C761.936,299.488,681.563,219.115,517.602,219.115C517.602,219.115,517.602,219.115,517.602,219.115" class="icon-social-1_logo-skype"/><glyph unicode="&#x0063;" d="M441.749,585.944C441.749,585.944,441.749,442.249,441.749,442.249C441.749,442.249,579.058,442.249,579.058,442.249C579.058,442.249,579.058,585.944,579.058,585.944C579.058,585.944,441.749,585.944,441.749,585.944M441.749,585.944C441.749,585.944,441.749,442.249,441.749,442.249C441.749,442.249,579.058,442.249,579.058,442.249C579.058,442.249,579.058,585.944,579.058,585.944C579.058,585.944,441.749,585.944,441.749,585.944M981.403,653.001C876.027,1004.255,722.752,1087.279,371.499,981.903C20.245,876.527,-62.779,723.252,42.597,371.999C147.973,20.745,301.248,-62.279,652.501,43.097C1003.755,148.473,1086.779,301.748,981.403,653.001C981.403,653.001,981.403,653.001,981.403,653.001M802.583,426.283C802.583,426.283,735.525,403.931,735.525,403.931C735.525,403.931,757.878,336.873,757.878,336.873C767.457,308.134,751.491,279.395,725.945,269.816C719.559,266.622,713.173,266.622,706.786,266.622C684.434,266.622,665.274,282.588,658.888,301.748C658.888,301.748,636.535,368.805,636.535,368.805C636.535,368.805,499.227,324.1,499.227,324.1C499.227,324.1,521.58,257.043,521.58,257.043C531.159,228.304,515.193,199.565,489.647,189.985C483.261,186.792,476.875,186.792,470.488,186.792C448.136,186.792,428.976,202.758,422.59,221.917C422.59,221.917,400.237,288.975,400.237,288.975C400.237,288.975,333.18,266.622,333.18,266.622C326.793,263.429,320.407,263.429,314.021,263.429C291.668,263.429,272.509,279.395,266.122,298.555C256.543,327.293,272.509,356.032,298.055,365.612C298.055,365.612,365.112,387.965,365.112,387.965C365.112,387.965,320.407,522.08,320.407,522.08C320.407,522.08,256.543,499.727,256.543,499.727C250.156,496.534,243.77,496.534,237.383,496.534C215.031,496.534,195.872,512.5,189.485,531.659C179.906,560.398,195.872,589.137,221.417,598.717C221.417,598.717,288.475,621.069,288.475,621.069C288.475,621.069,266.122,688.127,266.122,688.127C256.543,716.866,269.316,748.798,298.055,758.378C326.793,767.957,355.532,751.991,365.112,726.445C365.112,726.445,387.465,659.388,387.465,659.388C387.465,659.388,524.773,704.093,524.773,704.093C524.773,704.093,502.42,771.15,502.42,771.15C492.841,799.889,508.807,828.628,534.353,838.208C563.091,847.788,591.83,831.822,601.41,806.276C601.41,806.276,623.763,736.025,623.763,736.025C623.763,736.025,690.82,758.378,690.82,758.378C719.559,767.957,748.298,751.991,757.878,726.445C767.457,697.707,751.491,668.968,725.945,659.388C725.945,659.388,658.888,637.035,658.888,637.035C658.888,637.035,703.593,506.114,703.593,506.114C703.593,506.114,770.65,528.466,770.65,528.466C799.389,538.046,828.128,522.08,837.708,496.534C844.094,464.602,831.322,435.863,802.583,426.283C802.583,426.283,802.583,426.283,802.583,426.283" class="icon-social-1_logo-slack"/><glyph unicode="&#x0064;" d="M16.601,497.969C16.601,501.189,13.381,501.189,13.381,501.189C10.16,501.189,10.16,497.969,10.16,497.969C10.16,497.969,0.5,401.365,0.5,401.365C0.5,401.365,10.16,307.981,10.16,307.981C10.16,304.761,13.381,304.761,13.381,304.761C16.601,304.761,16.601,307.981,16.601,307.981C16.601,307.981,29.481,401.365,29.481,401.365C29.481,401.365,16.601,497.969,16.601,497.969C16.601,497.969,16.601,497.969,16.601,497.969M180.827,584.912C177.607,584.912,174.387,581.692,171.167,578.472C171.167,578.472,161.506,401.365,161.506,401.365C161.506,401.365,171.167,288.66,171.167,288.66C171.167,285.44,174.387,282.22,180.827,282.22C184.047,282.22,187.267,285.44,190.487,288.66C190.487,288.66,190.487,288.66,190.487,288.66C190.487,288.66,200.148,401.365,200.148,401.365C200.148,401.365,190.487,578.472,190.487,578.472C190.487,581.692,187.267,584.912,180.827,584.912C180.827,584.912,180.827,584.912,180.827,584.912M97.104,523.73C93.884,523.73,90.664,520.509,90.664,517.289C90.664,517.289,81.003,401.365,81.003,401.365C81.003,401.365,90.664,288.66,90.664,288.66C90.664,285.44,93.884,282.22,97.104,282.22C100.324,282.22,103.544,285.44,103.544,288.66C103.544,288.66,113.204,401.365,113.204,401.365C113.204,401.365,103.544,517.289,103.544,517.289C103.544,523.73,100.324,523.73,97.104,523.73C97.104,523.73,97.104,523.73,97.104,523.73M267.77,279C274.211,279,277.431,282.22,277.431,288.66C277.431,288.66,287.091,401.365,287.091,401.365C287.091,401.365,277.431,636.434,277.431,636.434C277.431,642.874,274.211,646.094,267.77,646.094C261.33,646.094,258.11,642.874,258.11,636.434C258.11,636.434,251.67,401.365,251.67,401.365C251.67,401.365,258.11,288.66,258.11,288.66C258.11,285.44,264.55,279,267.77,279C267.77,279,267.77,279,267.77,279M448.097,279C454.538,279,460.978,285.44,460.978,291.881C460.978,291.881,460.978,291.881,460.978,291.881C460.978,291.881,460.978,291.881,460.978,291.881C460.978,291.881,467.418,401.365,467.418,401.365C467.418,401.365,460.978,671.855,460.978,671.855C460.978,678.296,454.538,684.736,448.097,684.736C441.657,684.736,435.217,678.296,435.217,671.855C435.217,671.855,428.777,401.365,428.777,401.365C428.777,401.365,435.217,291.881,435.217,291.881C431.997,285.44,438.437,279,448.097,279C448.097,279,448.097,279,448.097,279M357.934,279C364.374,279,370.814,285.44,370.814,291.881C370.814,291.881,370.814,291.881,370.814,291.881C370.814,291.881,377.255,401.365,377.255,401.365C377.255,401.365,367.594,639.654,367.594,639.654C367.594,646.094,361.154,652.535,354.714,652.535C348.274,652.535,341.833,646.094,341.833,639.654C341.833,639.654,335.393,404.585,335.393,404.585C335.393,404.585,341.833,295.101,341.833,295.101C345.053,285.44,351.494,279,357.934,279C357.934,279,357.934,279,357.934,279M895.695,543.05C876.374,543.05,860.274,539.83,844.173,533.39C834.513,652.535,734.689,745.918,612.324,745.918C583.343,745.918,554.362,739.478,528.601,729.818C518.94,726.597,515.72,723.377,515.72,713.717C515.72,713.717,515.72,298.321,515.72,298.321C515.72,291.881,522.16,282.22,528.601,282.22C528.601,282.22,889.255,282.22,892.475,282.22C966.538,282.22,1024.5,340.182,1024.5,414.245C1024.5,488.308,969.758,543.05,895.695,543.05C895.695,543.05,895.695,543.05,895.695,543.05" class="icon-social-1_logo-soundcloud"/><glyph unicode="&#x0065;" d="M512,1024C230.4,1024,0,793.6,0,512C0,230.4,230.4,0,512,0C793.6,0,1024,230.4,1024,512C1024,793.6,796.8,1024,512,1024C512,1024,512,1024,512,1024M748.8,284.8C739.2,268.8,720,265.6,704,275.2C582.4,348.8,432,364.8,252.8,323.2C233.6,316.8,220.8,329.6,214.4,345.6C208,364.8,220.8,377.6,236.8,384C432,428.8,601.6,409.6,732.8,326.4C752,320,755.2,300.8,748.8,284.8C748.8,284.8,748.8,284.8,748.8,284.8M809.6,425.6C796.8,406.4,774.4,400,755.2,412.8C617.6,496,406.4,521.6,246.4,470.4C227.2,464,201.6,476.8,198.4,496C192,518.4,201.6,540.8,224,544C409.6,601.6,640,572.8,800,473.6C812.8,467.2,822.4,441.6,809.6,425.6C809.6,425.6,809.6,425.6,809.6,425.6M812.8,569.6C649.6,665.6,374.4,678.4,217.6,627.2C192,620.8,166.4,633.6,160,659.2C153.6,684.8,166.4,710.4,192,716.8C374.4,771.2,672,761.6,864,646.4C886.4,633.6,896,601.6,883.2,579.2C867.2,563.2,838.4,556.8,812.8,569.6C812.8,569.6,812.8,569.6,812.8,569.6" class="icon-social-1_logo-spotify"/><glyph unicode="&#x0066;" d="M128,1024C57.6,1024,0,966.4,0,896C0,896,0,128,0,128C0,57.6,57.6,0,128,0C128,0,896,0,896,0C966.4,0,1024,57.6,1024,128C1024,128,1024,896,1024,896C1024,966.4,966.4,1024,896,1024C896,1024,128,1024,128,1024C128,1024,128,1024,128,1024C128,1024,128,1024,128,1024M576,832C576,832,576,512,576,512C576,476.8,604.8,448,640,448C640,448,832,448,832,448C867.2,448,896,476.8,896,512C896,512,896,832,896,832C896,867.2,867.2,896,832,896C832,896,640,896,640,896C604.8,896,576,867.2,576,832C576,832,576,832,576,832M128,832C128,832,128,256,128,256C128,220.8,156.8,192,192,192C192,192,384,192,384,192C419.2,192,448,220.8,448,256C448,256,448,832,448,832C448,867.2,419.2,896,384,896C384,896,192,896,192,896C156.8,896,128,867.2,128,832C128,832,128,832,128,832" class="icon-social-1_logo-trello"/><glyph unicode="&#x0067;" d="M760.204,204.946C741.007,195.348,705.813,188.949,677.018,185.749C593.833,185.749,577.836,246.539,577.836,288.131C577.836,288.131,577.836,608.074,577.836,608.074C577.836,608.074,782.6,608.074,782.6,608.074C782.6,608.074,782.6,761.647,782.6,761.647C782.6,761.647,577.836,761.647,577.836,761.647C577.836,761.647,577.836,1024,577.836,1024C577.836,1024,430.662,1024,427.463,1024C424.263,1024,421.064,1020.801,421.064,1017.601C411.466,937.615,376.272,796.841,219.5,742.45C219.5,742.45,219.5,608.074,219.5,608.074C219.5,608.074,321.882,608.074,321.882,608.074C321.882,608.074,321.882,272.134,321.882,272.134C321.882,156.955,405.067,-6.216,629.027,0.183C705.813,0.183,788.998,32.177,804.996,60.972C804.996,60.972,760.204,204.946,760.204,204.946C760.204,204.946,760.204,204.946,760.204,204.946" class="icon-social-1_logo-tumblr"/><glyph unicode="&#x0068;" d="M1024,828.017C985.72,812.067,947.439,799.307,902.779,796.117C947.439,821.637,979.34,863.107,995.29,910.958C953.819,885.438,909.159,869.488,861.308,859.917C823.028,901.388,768.798,926.908,711.377,926.908C596.536,926.908,500.835,834.397,500.835,716.366C500.835,700.416,504.025,684.466,507.215,668.516C331.763,678.086,178.642,761.026,73.371,888.628C54.231,856.727,44.66,821.637,44.66,783.357C44.66,709.986,82.941,646.185,137.171,607.905C102.081,607.905,70.181,617.475,41.47,633.425C41.47,633.425,41.47,630.235,41.47,630.235C41.47,528.154,114.841,445.213,210.542,426.073C191.402,422.883,175.452,419.693,156.312,419.693C143.551,419.693,130.791,419.693,118.031,422.883C143.551,339.942,223.302,279.332,312.623,276.142C242.442,218.721,149.931,186.821,51.04,186.821C35.09,186.821,15.95,186.821,0,190.011C95.701,132.59,207.352,97.5,325.383,97.5C711.377,97.5,921.919,416.503,921.919,694.036C921.919,703.606,921.919,713.176,921.919,719.556C960.199,751.456,995.29,786.547,1024,828.017C1024,828.017,1024,828.017,1024,828.017" class="icon-social-1_logo-twitter"/><glyph unicode="&#x0069;" d="M1023.466,748.745C1020.268,649.597,949.905,512.068,815.575,339.358C674.848,157.053,559.708,67.5,463.758,67.5C402.99,67.5,355.015,121.872,313.437,233.813C284.652,336.16,259.065,435.308,230.28,537.655C198.297,646.398,166.313,703.968,131.132,703.968C124.735,703.968,95.95,687.977,51.173,655.993C51.173,655.993,0,716.761,0,716.761C51.173,761.538,99.148,806.315,150.322,851.091C217.487,908.661,268.66,940.645,300.643,943.843C380.602,950.24,428.577,895.868,447.767,780.728C466.957,655.993,482.948,576.035,489.345,547.25C511.733,441.705,537.32,390.532,566.105,390.532C588.493,390.532,620.477,425.713,662.055,492.878C703.633,560.043,729.22,611.217,732.418,646.398C738.815,703.968,716.426,732.753,662.055,732.753C636.468,732.753,610.882,726.356,585.295,716.761C636.468,883.075,732.418,963.033,873.145,956.636C978.69,950.24,1029.863,883.075,1023.466,748.745C1023.466,748.745,1023.466,748.745,1023.466,748.745" class="icon-social-1_logo-vimeo"/><glyph unicode="&#x006a;" d="M960.5,515.7C934.9,509.3,909.3,506.1,886.9,506.1C758.9,506.1,659.7,595.7,659.7,752.5C659.7,829.3,688.5,870.9,730.1,870.9C771.7,870.9,797.3,835.7,797.3,762.1C797.3,720.5,787.7,675.7,778.1,646.9C778.1,646.9,816.5,576.5,925.3,598.9C947.7,650.1,960.5,717.3,960.5,774.9C960.5,931.7,880.5,1024.5,733.3,1024.5C582.9,1024.5,493.3,909.3,493.3,755.7C493.3,605.3,563.7,474.1,682.1,416.5C634.1,317.3,570.1,230.9,506.1,166.9C387.7,310.9,282.1,499.7,237.3,870.9C237.3,870.9,64.5,870.9,64.5,870.9C144.5,253.3,384.5,54.9,448.5,16.5C483.7,-5.9,515.7,-2.7,547.7,13.3C598.9,42.1,752.5,195.7,838.9,378.1C874.1,378.1,918.9,381.3,960.5,390.9C960.5,390.9,960.5,515.7,960.5,515.7C960.5,515.7,960.5,515.7,960.5,515.7" class="icon-social-1_logo-vine"/><glyph unicode="&#x006b;" d="M3.5,0C3.5,0,77.1,262.4,77.1,262.4C32.3,339.2,9.9,425.6,9.9,515.2C6.7,796.8,233.9,1024,515.5,1024C649.9,1024,777.9,969.6,873.9,873.6C969.9,777.6,1021.1,649.6,1021.1,515.2C1021.1,236.8,793.9,6.4,512.3,6.4C512.3,6.4,512.3,6.4,512.3,6.4C512.3,6.4,512.3,6.4,512.3,6.4C425.9,6.4,342.7,28.8,269.1,67.2C269.1,67.2,3.5,0,3.5,0C3.5,0,3.5,0,3.5,0M285.1,163.2C285.1,163.2,301.1,153.6,301.1,153.6C365.1,115.2,438.7,96,515.5,96C515.5,96,515.5,96,515.5,96C749.1,96,937.9,284.8,937.9,518.4C937.9,630.4,893.1,736,813.1,816C733.1,896,627.5,940.8,515.5,940.8C281.9,937.6,93.1,748.8,93.1,515.2C93.1,435.2,115.5,358.4,157.1,291.2C157.1,291.2,166.7,275.2,166.7,275.2C166.7,275.2,125.1,118.4,125.1,118.4C125.1,118.4,285.1,163.2,285.1,163.2C285.1,163.2,285.1,163.2,285.1,163.2M387.5,729.6C377.9,755.2,368.3,752,358.7,752C352.3,752,342.7,752,333.1,752C323.5,752,310.7,748.8,297.9,736C288.3,723.2,256.3,691.2,256.3,630.4C256.3,566.4,301.1,508.8,307.5,499.2C313.9,489.6,397.1,361.6,525.1,307.2C553.9,294.4,579.5,284.8,598.7,281.6C627.5,272,656.3,272,678.7,275.2C704.3,278.4,752.3,307.2,765.1,336C774.7,364.8,774.7,390.4,771.5,396.8C768.3,403.2,758.7,406.4,745.9,412.8C733.1,416,672.3,448,659.5,451.2C646.7,454.4,640.3,457.6,630.7,444.8C621.1,432,598.7,403.2,589.1,393.6C582.7,384,573.1,384,560.3,390.4C547.5,396.8,505.9,409.6,457.9,454.4C419.5,489.6,393.9,528,387.5,540.8C381.1,553.6,387.5,560,393.9,566.4C400.3,572.8,406.7,582.4,413.1,588.8C419.5,595.2,422.7,601.6,425.9,611.2C429.1,620.8,429.1,627.2,425.9,633.6C422.7,640,397.1,704,387.5,729.6C387.5,729.6,387.5,729.6,387.5,729.6" class="icon-social-1_logo-whatsapp"/><glyph unicode="&#x006c;" d="M0,512.5C0,310.9,118.4,134.9,288,51.7C288,51.7,44.8,720.5,44.8,720.5C16,656.5,0,586.1,0,512.5C0,512.5,0,512.5,0,512.5M857.6,538.1C857.6,602.1,835.2,643.7,816,678.9C790.4,720.5,764.8,755.7,764.8,800.5C764.8,848.5,800,890.1,851.2,890.1C854.4,890.1,854.4,890.1,857.6,890.1C768,973.3,646.4,1024.5,512,1024.5C332.8,1024.5,176,931.7,83.2,794.1C96,794.1,105.6,794.1,115.2,794.1C169.6,794.1,252.8,800.5,252.8,800.5C281.6,800.5,284.8,762.1,256,758.9C256,758.9,227.2,755.7,198.4,752.5C198.4,752.5,384,198.9,384,198.9C384,198.9,496,534.9,496,534.9C496,534.9,416,752.5,416,752.5C387.2,755.7,361.6,758.9,361.6,758.9C336,758.9,339.2,800.5,368,800.5C368,800.5,451.2,794.1,502.4,794.1C556.8,794.1,640,800.5,640,800.5C668.8,803.7,672,762.1,643.2,758.9C643.2,758.9,614.4,755.7,585.6,752.5C585.6,752.5,768,202.1,768,202.1C768,202.1,819.2,371.7,819.2,371.7C841.6,442.1,857.6,493.3,857.6,538.1C857.6,538.1,857.6,538.1,857.6,538.1M521.6,467.7C521.6,467.7,368,22.9,368,22.9C412.8,10.1,460.8,0.5,512,0.5C572.8,0.5,630.4,10.1,681.6,29.3C681.6,32.5,678.4,32.5,678.4,35.7C678.4,35.7,521.6,467.7,521.6,467.7C521.6,467.7,521.6,467.7,521.6,467.7M960,758.9C963.2,742.9,963.2,723.7,963.2,707.7C963.2,656.5,953.6,598.9,924.8,525.3C924.8,525.3,768,70.9,768,70.9C921.6,160.5,1024,323.7,1024,512.5C1024,602.1,1001.6,685.3,960,758.9C960,758.9,960,758.9,960,758.9" class="icon-social-1_logo-wordpress"/><glyph unicode="&#x006d;" d="M149.404,533.573C133.446,508.04,127.063,421.867,133.446,367.61C136.638,348.461,139.829,332.503,143.021,326.12C149.404,313.353,158.979,306.97,171.745,306.97C178.128,306.97,184.511,306.97,334.516,358.036C334.516,358.036,401.539,380.377,401.539,380.377C417.497,383.568,430.263,399.526,430.263,421.867C430.263,441.017,420.688,460.166,404.731,466.549C404.731,466.549,356.857,485.699,356.857,485.699C197.278,552.722,187.703,555.914,181.32,555.914C168.553,552.722,155.787,546.339,149.404,533.573C149.404,533.573,149.404,533.573,149.404,533.573M510.053,26.111C513.244,32.494,513.244,38.877,513.244,201.648C513.244,201.648,513.244,271.863,513.244,275.054C513.244,291.012,503.67,306.97,484.52,316.545C465.371,322.928,446.221,319.737,433.455,303.779C433.455,303.779,401.539,262.288,401.539,262.288C289.834,128.242,283.45,121.859,280.259,112.284C277.067,109.092,277.067,102.709,277.067,96.326C277.067,89.943,280.259,83.56,286.642,73.985C312.175,42.069,439.838,-5.805,478.137,0.578C494.095,6.962,503.67,16.536,510.053,26.111C510.053,26.111,510.053,26.111,510.053,26.111M765.379,83.56C803.678,99.517,886.659,204.84,893.043,246.33C896.234,262.288,889.851,271.863,880.276,281.438C873.893,287.821,867.51,287.821,720.697,338.886C720.697,338.886,653.674,361.227,653.674,361.227C637.716,367.61,618.567,361.227,608.992,345.269C596.225,329.311,593.034,310.162,605.8,294.204C605.8,294.204,631.333,249.522,631.333,249.522C720.697,102.709,727.08,89.943,733.463,86.751C736.655,80.368,749.421,77.176,765.379,83.56C765.379,83.56,765.379,83.56,765.379,83.56C765.379,83.56,765.379,83.56,765.379,83.56M685.59,463.358C854.744,504.848,861.127,508.04,867.51,511.232C877.085,517.615,883.468,530.381,883.468,543.147C883.468,543.147,883.468,543.147,883.468,543.147C880.276,584.638,806.87,696.343,768.571,715.493C755.805,721.876,743.038,721.876,733.463,715.493C727.08,712.301,720.697,705.918,631.333,578.255C631.333,578.255,589.842,520.806,589.842,520.806C580.268,508.04,580.268,488.89,589.842,472.933C599.417,456.975,618.567,447.4,637.716,453.783C637.716,453.783,637.716,453.783,637.716,453.783C644.099,453.783,660.057,456.975,685.59,463.358C685.59,463.358,685.59,463.358,685.59,463.358M516.436,606.979C516.436,606.979,516.436,606.979,516.436,606.979C513.244,677.194,494.095,983.586,490.903,996.352C487.712,1009.118,478.137,1018.693,462.179,1021.885C417.497,1034.651,251.535,986.777,222.81,954.861C213.236,945.287,210.044,929.329,210.044,919.754C216.427,910.179,420.688,578.255,420.688,578.255C452.604,527.189,474.945,536.764,484.52,536.764C494.095,539.956,519.627,549.53,516.436,606.979C516.436,606.979,516.436,606.979,516.436,606.979" class="icon-social-1_logo-yelp"/><glyph unicode="&#x006e;" d="M1014.4,716.9C1014.4,716.9,1004.8,787.3,972.8,819.3C934.4,860.9,889.6,860.9,870.4,864.1C726.4,873.7,512,873.7,512,873.7C512,873.7,512,873.7,512,873.7C512,873.7,297.6,873.7,153.6,864.1C134.4,860.9,89.6,860.9,51.2,819.3C19.2,787.3,9.6,716.9,9.6,716.9C9.6,716.9,0,633.7,0,550.5C0,550.5,0,473.7,0,473.7C0,390.5,9.6,307.3,9.6,307.3C9.6,307.3,19.2,236.9,51.2,204.9C89.6,163.3,140.8,166.5,163.2,160.1C246.4,153.7,512,150.5,512,150.5C512,150.5,726.4,150.5,870.4,160.1C889.6,163.3,934.4,163.3,972.8,204.9C1004.8,236.9,1014.4,307.3,1014.4,307.3C1014.4,307.3,1024,390.5,1024,473.7C1024,473.7,1024,550.5,1024,550.5C1024,633.7,1014.4,716.9,1014.4,716.9C1014.4,716.9,1014.4,716.9,1014.4,716.9M406.4,377.7C406.4,377.7,406.4,665.7,406.4,665.7C406.4,665.7,681.6,521.7,681.6,521.7C681.6,521.7,406.4,377.7,406.4,377.7C406.4,377.7,406.4,377.7,406.4,377.7" class="icon-social-1_logo-youtube"/></font>
</defs>
</svg>
